设为首页收藏本站

巅峰音乐论坛

 找回密码
 注册

QQ登录

只需一步,快速开始

AKG立体声耳机发烧高保真书架音箱殿堂级发烧HIFI套装
随身无损播放器商家展示招募QQ:1105258688森海塞尔耳机
铁三角监听耳机HIFI监听音箱全频监听音箱
查看: 3691|回复: 95

【原抓】天作之合6《真心英雄》[WAV]115/迅雷快传

  [复制链接]

该用户从未签到

发表于 2011-10-15 21:26:58 | 显示全部楼层 |阅读模式

天作之合6《真心英雄》
封面图片

CD图片

封底图片

专辑歌手: 群星
授权公司:滚石唱片
发行公司:美卡文化
出 版 社:上海音像出版
ISRC编码:CN-E07-02-356-06/A.J6
发行时间:2002年
资源类型:原抓WAV+CUE


专辑介绍:

    是那纯真的情怀令人怀念……

    一段多愁善感的岁月,过去了,却留下太多的痕迹。


专辑曲目:

01. 真心英雄  〈周华健/李宗盛/黄耀明〉
02. 别人都说我们会分手   〈无印良品〉
03. 始终只爱你  〈李宗盛/卢冠廷 〉
04. 是否  〈潘越云/周华健〉
05. 把悲伤留给自已  〈陈升/莫文慰〉
06. 东京物语  〈吴佩慈/张洪量〉
07. 新温情时代  〈周华健/李度〉
08. 最近比较烦  〈周华健/李宗盛/品冠〉
09. 努力活着 〈赵传/刘沁〉
10. 爱我爱我  〈任贤齐/莫文慰〉
11. 我明白  〈林忆莲/李宗盛 〉
12. 南龙北凤  〈周华健/莫文慰〉
13. 温缓  〈周华健/任贤齐〉
14. 神话情话  〈周华健/齐豫〉

游客,如果您要查看本帖隐藏内容请回复


声明:   本专辑版权属唱片公司所有,只可用于个人试听交流使用,
        禁用于任何商业用途或公开传播的场合, 请在试听后24小时内删除。
        本人不承担与之相关的一切法律责任,
        如您喜欢此CD的内容,请购买正版CD!
        原创辛苦,谢绝转载!

本帖子中包含更多资源

您需要 登录 才可以下载或查看,没有帐号?注册

x

该用户从未签到

 楼主| 发表于 2011-10-15 21:28:36 | 显示全部楼层
Exact Audio Copy V0.99 prebeta 5 from 4. May 2009

EAC 抓取日志文件从7. 十月 2011, 20:54

天作之合6 / 真心英雄

使用驱动器  :PIONEER DVD-RW  DVR-218L   Adapter: 2  ID: 1

读取模式     : 保护
使用精确流   : 是
废除音频缓冲 : 是
使用 C2 指针 : 否

读取偏移校正                   : 6
读取 Lead-In 和 Lead-Out       : 否
用静音填充抓取中丢失偏移的采样 : 是
去除首尾静音块                 : 否
在 CRC 计算中使用了空样本      : 是
已用接口                       : Win NT 及 2000 本地 Win32 接口

所用输出格式 : 内部 WAV 函数
样本格式     : 44.100 Hz;16 Bit;立体声


被抓轨 CD 的 TOC

     音轨 |   开始   |   长度   | 起始扇区 | 结尾扇区
    --------------------------------------------------
       1  |  0:00.01 |  5:02.07 |       1  |   22657  
       2  |  5:02.08 |  4:22.65 |   22658  |   42372  
       3  |  9:24.73 |  3:20.69 |   42373  |   57441  
       4  | 12:45.67 |  3:52.35 |   57442  |   74876  
       5  | 16:38.27 |  4:39.70 |   74877  |   95871  
       6  | 21:18.22 |  4:52.11 |   95872  |  117782  
       7  | 26:10.33 |  3:41.30 |  117783  |  134387  
       8  | 29:51.63 |  4:40.23 |  134388  |  155410  
       9  | 34:32.11 |  3:56.51 |  155411  |  173161  
      10  | 38:28.62 |  4:18.03 |  173162  |  192514  
      11  | 42:46.65 |  5:42.25 |  192515  |  218189  
      12  | 48:29.15 |  3:31.08 |  218190  |  234022  
      13  | 52:00.23 |  4:28.07 |  234023  |  254129  


范围状态及错误

已选择范围

     文件名 E:\天作之合6《真心英雄》.wav

     峰值电平 97.3 %
     范围质量 99.9 %
     复制 CRC FA9D680F
     复制成功

没有错误发生


状态报告结尾

该用户从未签到

发表于 2011-10-15 21:30:44 | 显示全部楼层
《真心英雄》我喜欢,感谢南山的分享{:4_117:}还是沙发阿!

该用户从未签到

发表于 2011-10-15 23:19:38 | 显示全部楼层
{:4_91:}咳咳...我貌似就只听过“真心英雄”
谢谢分享

该用户从未签到

发表于 2011-10-16 02:00:09 | 显示全部楼层
沙发被人坐去了板凳也没留给我,{:4_114:}{:4_114:}{:4_114:}
  • TA的每日心情
    开心
    2 小时前
  • 签到天数: 168 天

    [LV.7]常住居民III

    发表于 2011-10-16 07:07:47 | 显示全部楼层
    名家名作,都是经典歌曲,谢谢分享
  • TA的每日心情
    开心
    2014-7-28 22:15
  • 签到天数: 2 天

    [LV.1]初来乍到

    发表于 2011-10-16 07:54:37 | 显示全部楼层
    谢谢南山兄分享

    该用户从未签到

    发表于 2011-10-17 00:55:44 | 显示全部楼层
    系列之六,谢谢分享

    该用户从未签到

    发表于 2011-10-17 02:29:51 | 显示全部楼层
    必须要顶的经典老歌
  • TA的每日心情
    开心
    3 天前
  • 签到天数: 15 天

    [LV.4]偶尔看看III

    发表于 2011-10-17 08:46:28 | 显示全部楼层
    老歌值得回味,谢谢楼主分享。

    该用户从未签到

    发表于 2011-10-17 08:57:00 | 显示全部楼层
    经典对唱之六,谢谢

    该用户从未签到

    发表于 2011-10-17 17:13:43 | 显示全部楼层
    旧歌也要不时听一听,旧有旧的味道。谢谢楼主分享。

    该用户从未签到

    发表于 2011-10-19 07:48:08 | 显示全部楼层
    终于下到了第6,多谢先.

    该用户从未签到

    发表于 2011-10-19 13:26:44 | 显示全部楼层
    值得收藏的精品发烧碟{:4_129:}
  • TA的每日心情
    开心
    3 小时前
  • 签到天数: 168 天

    [LV.7]常住居民III

    发表于 2011-10-21 09:09:14 | 显示全部楼层
    感谢楼主的辛勤劳动,谢谢
     懒得打字嘛,点击右侧快捷回复【左侧自定义内容】  【右侧自定义内容】
    您需要登录后才可以回帖 登录 | 注册

    本版积分规则

    小黑屋|手机版|Archiver|巅峰音乐论坛    

    GMT+8, 2014-11-22 10:35 , Processed in 0.123983 second(s), 25 queries .

    Powered by Discuz! X3.2 Licensed

    © 2001-2013 Comsenz Inc.| Style by 913TT

    快速回复 返回顶部 返回列表